Lynda: Douglas Kirkland on Photography: A Photographer`s Eye with Douglas Kirkland

Download Lynda: Douglas Kirkland on Photography: A Photographer`s Eye with Douglas Kirkland

Description

Lynda: Douglas Kirkland on Photography: A Photographer`s EyeEnglish | MP4 + Project files | 960 x 540 | AVC ~1500 kbps | 29.970 fps

AAC | 128 Kbps | 48.0 KHz | 2 channels | 2h 08m | 531.1 MB

Genre: Video Tutorial / Photography“In this installment, Douglas discusses the importance of developing a sense of photographic vision: keeping your mind and eye open for photographic opportunities, and maximizing those opportunities through composition and other creative decisions. The course begins with Douglas reviewing images from his personal collection. He discusses the importance of observation and exploration for a photographer, how to see art in everyday situations, and why one should always have a camera nearby.”

In the Douglas Kirkland on Photography series, well-known photographer Douglas Kirkland explores a variety of real-world photographic scenarios, sharing technical insights and critiquing the results.

Douglas then goes on location to shoot in and around Korakia Pensione, a resort in Palm Springs, California. He explains his creative and technical decisions as he shoots, and describes how natural lines created by architecture and light can help make an effective photograph. The course continues on a hike through a Palm Springs canyon, where Douglas captures images in the field, working with moving water, highly textured rock faces, and even some local wildlife. Finally, Douglas wanders through downtown Palm Springs armed with a simple point-and-shoot camera, proving that with vision and an open mind, great images can be made with simplest equipment.

Download a free companion guide to Douglas Kirkland on Photography: A Photographer`s Eye from the Exercise Files tab. The guide contains photos, detailed camera-setting information from the shoots in this course, and more tips from Douglas on improving composition and maximizing available natural light.

Content:
Introduction
2m 18s
Course highlights
1m 31s
Welcome
47s
2. Seeing and Composition
16m 38s
Seeing an image
4m 55s
Composing an indoor image
5m 25s
Composing an outdoor image
6m 18s
3. Telling a Story with Pictures
17m 47s
Telling the story of Korakia Pensione
8m 6s
Telling the story of a hike
5m 55s
Using a compact, point-and-shoot camera
3m 46s
Conclusion
1m 9s
Goodbye
1m 9s
About the Author
4m 3s
Meet Douglas Kirkland
4m 3s

Complete name : 77482_03_02_LA30_Canyon_update.mp4
Format : MPEG-4
Format profile : Base Media / Version 2
Codec ID : mp42
File size : 72.2 MiB
Duration : 5mn 55s
Overall bit rate mode : Variable
Overall bit rate : 1 704 Kbps
Encoded date : UTC 2011-10-17 20:24:49
Tagged date : UTC 2011-10-17 20:24:49
Writing library : Apple QuickTime

Video
ID : 1
Format : AVC
Format/Info : Advanced Video Codec
Format profile : [email protected]
Format settings, CABAC : Yes
Format settings, ReFrames : 4 frames
Codec ID : avc1
Codec ID/Info : Advanced Video Coding
Duration : 5mn 55s
Source duration : 5mn 55s
Bit rate : 1 500 Kbps
Width : 960 pixels
Height : 540 pixels
Display aspect ratio : 16:9
Frame rate mode : Constant
Frame rate : 29.970 fps
Standard : Component
Color space : YUV
Chroma subsampling : 4:2:0
Bit depth : 8 bits
Scan type : Progressive
Bits/(Pixel*Frame) : 0.097
Stream size : 63.5 MiB (88%)
Source stream size : 66.6 MiB
Language : English
Encoded date : UTC 2011-10-17 20:24:49
Tagged date : UTC 2011-10-17 20:24:49

Audio
ID : 2
Format : AAC
Format/Info : Advanced Audio Codec
Format profile : LC
Codec ID : 40
Duration : 5mn 55s
Bit rate mode : Variable
Bit rate : 128 Kbps
Maximum bit rate : 136 Kbps
Channel(s) : 2 channels
Channel positions : Front: L R
Sampling rate : 48.0 KHz
Compression mode : Lossy
Stream size : 5.42 MiB (8%)
Language : English
Encoded date : UTC 2011-10-17 20:24:49
Tagged date : UTC 2011-10-17 20:24:49

Download Lynda: Douglas Kirkland on Photography: A Photographer`s Eye with Douglas Kirkland [repost] Part 1

Download Lynda: Douglas Kirkland on Photography: A Photographer`s Eye with Douglas Kirkland [repost] Part 2

Download Lynda: Douglas Kirkland on Photography: A Photographer`s Eye with Douglas Kirkland [repost] Part 3

Watch more