Kelbyone – Indoor Lifestyle Photography

Download Kelbyone – Indoor Lifestyle Photography

Description

Kelbyone – Indoor Lifestyle Photography


1. Introduction:
Join Erik as he provides an overview of the concepts and techniques covered in this class, and then jumps right into setting up the first location shoot.
2. Adding Fill Light:
The goal of fill light is to bring up the shadows without drawing attention to itself.
3. Using a Grid To Direct the Light:
Adding an egg crate grid to the strip light allows for a finer control of the direction of the light.
4. Location Change:
Erik applies the concepts covered in the first shoot to a location change within the restaurant.
5. Lighting a Room to Make it Look Natural:
Using more powerful studio strobes allows you to shoot with a smaller aperture to get a wider depth of field. In a lifestyle shoot you want the light to look as natural as possible to convey a sense of authenticity.
6. Adding One More Light:
To add just a little more sense of realism in this scene Erik adds one more light to simulate light coming from the TV.
7. Second Living Room Scene:
Working in studio allows you to rearrange the set to completely change the direction you are shooting from and change the perspective of the viewer.
8. Inside a Clothing Store:
Shooting in most retail stores means dealing with a lot of competing lighting sources. It is your job to come up with strategies to work with what you have.
9. Second Store Scene:
Moving to the back of the store eliminates the daylight mixing with the scene, but now you have to deal with the existing fluorescent light.

Mediainfo: Format : MPEG-4
Format profile : Base Media
Codec ID : isom
File size : 51.5 MiB
Duration : 3mn 51s
Overall bit rate : 1 865 Kbps
Performer : Kelby Media Group
Encoded date : UTC 2013-05-04 00:07:43
Tagged date : UTC 2013-05-04 00:07:43
Writing application : Lavf53.32.100
Copyright : kelbymediagroup.com
Comment : Copyright Kelby Media Group
Video #1
ID : 1
Format : AVC
Format/Info : Advanced Video Codec
Format profile : [email protected]
Format settings, CABAC : Yes
Format settings, ReFrames : 3 frames
Codec ID : avc1
Codec ID/Info : Advanced Video Coding
Duration : 3mn 51s
Bit rate : 1 800 Kbps
Width : 1 280 pixels
Height : 720 pixels
Display aspect ratio : 16:9
Frame rate mode : Constant
Frame rate : 29.970 fps
Color space : YUV
Chroma subsampling : 4:2:0
Bit depth : 8 bits
Scan type : Progressive
Bits/(Pixel*Frame) : 0.065
Stream size : 49.5 MiB (96%)
Writing library : x264 core 120
Encoding settings : cabac=1 / ref=3 / deblock=1:0:0 / analyse=0x1:0x111 / me=hex / subme=6 / psy=0 / mixed_ref=0 / me_range=16 / chroma_me=1 / trellis=1 / 8x8dct=0 / cqm=0 / deadzone=21,11 / fast_pskip=1 / chroma_qp_offset=0 / threads=48 / sliced_threads=0 / nr=0 / decimate=1 / interlaced=0 / bluray_compat=0 / constrained_intra=0 / bframes=3 / b_pyramid=0 / b_adapt=1 / b_bias=0 / direct=1 / weightb=0 / open_gop=0 / weightp=2 / keyint=150 / keyint_min=76 / scenecut=0 / intra_refresh=0 / rc=2pass / mbtree=0 / bitrate=1800 / ratetol=1.0 / qcomp=0.60 / qpmin=10 / qpmax=51 / qpstep=4 / cplxblur=20.0 / qblur=0.5 / ip_ratio=1.40 / pb_ratio=1.30 / aq=1:1.00
Language : English
Encoded date : UTC 2013-05-04 00:07:43
Tagged date : UTC 2013-05-04 00:07:43
Audio #2
ID : 2
Format : AAC
Format/Info : Advanced Audio Codec
Format profile : LC
Codec ID : 40
Duration : 3mn 51s
Bit rate mode : Constant
Bit rate : 64.0 Kbps
Channel(s) : 2 channels
Channel(s)_Original : 1 channel
Channel positions : Front: C
Sampling rate : 44.1 KHz
Compression mode : Lossy
Stream size : 1.77 MiB (3%)
Language : English
Encoded date : UTC 2013-05-04 00:07:43
Tagged date : UTC 2013-05-04 00:07:43

Indoor Lifestyle Photography course content:

1. Introduction:
Join Erik as he provides an overview of the concepts and techniques covered in this class, and then jumps right into setting up the first location shoot.
2. Adding Fill Light:
The goal of fill light is to bring up the shadows without drawing attention to itself.
3. Using a Grid To Direct the Light:
Adding an egg crate grid to the strip light allows for a finer control of the direction of the light.
4. Location Change:
Erik applies the concepts covered in the first shoot to a location change within the restaurant.
5. Lighting a Room to Make it Look Natural:
Using more powerful studio strobes allows you to shoot with a smaller aperture to get a wider depth of field. In a lifestyle shoot you want the light to look as natural as possible to convey a sense of authenticity.
6. Adding One More Light:
To add just a little more sense of realism in this scene Erik adds one more light to simulate light coming from the TV.
7. Second Living Room Scene:
Working in studio allows you to rearrange the set to completely change the direction you are shooting from and change the perspective of the viewer.
8. Inside a Clothing Store:
Shooting in most retail stores means dealing with a lot of competing lighting sources. It is your job to come up with strategies to work with what you have.
9. Second Store Scene:
Moving to the back of the store eliminates the daylight mixing with the scene, but now you have to deal with the existing fluorescent light.

Format : MPEG-4
Format profile : Base Media
Codec ID : isom
File size : 51.5 MiB
Duration : 3mn 51s
Overall bit rate : 1 865 Kbps
Performer : Kelby Media Group
Encoded date : UTC 2013-05-04 00:07:43
Tagged date : UTC 2013-05-04 00:07:43
Writing application : Lavf53.32.100
Copyright : kelbymediagroup.com
Comment : Copyright Kelby Media Group
Video #1
ID : 1
Format : AVC
Format/Info : Advanced Video Codec
Format profile : [email protected]
Format settings, CABAC : Yes
Format settings, ReFrames : 3 frames
Codec ID : avc1
Codec ID/Info : Advanced Video Coding
Duration : 3mn 51s
Bit rate : 1 800 Kbps
Width : 1 280 pixels
Height : 720 pixels
Display aspect ratio : 16:9
Frame rate mode : Constant
Frame rate : 29.970 fps
Color space : YUV
Chroma subsampling : 4:2:0
Bit depth : 8 bits
Scan type : Progressive
Bits/(Pixel*Frame) : 0.065
Stream size : 49.5 MiB (96%)
Writing library : x264 core 120
Encoding settings : cabac=1 / ref=3 / deblock=1:0:0 / analyse=0x1:0x111 / me=hex / subme=6 / psy=0 / mixed_ref=0 / me_range=16 / chroma_me=1 / trellis=1 / 8x8dct=0 / cqm=0 / deadzone=21,11 / fast_pskip=1 / chroma_qp_offset=0 / threads=48 / sliced_threads=0 / nr=0 / decimate=1 / interlaced=0 / bluray_compat=0 / constrained_intra=0 / bframes=3 / b_pyramid=0 / b_adapt=1 / b_bias=0 / direct=1 / weightb=0 / open_gop=0 / weightp=2 / keyint=150 / keyint_min=76 / scenecut=0 / intra_refresh=0 / rc=2pass / mbtree=0 / bitrate=1800 / ratetol=1.0 / qcomp=0.60 / qpmin=10 / qpmax=51 / qpstep=4 / cplxblur=20.0 / qblur=0.5 / ip_ratio=1.40 / pb_ratio=1.30 / aq=1:1.00
Language : English
Encoded date : UTC 2013-05-04 00:07:43
Tagged date : UTC 2013-05-04 00:07:43
Audio #2
ID : 2
Format : AAC
Format/Info : Advanced Audio Codec
Format profile : LC
Codec ID : 40
Duration : 3mn 51s
Bit rate mode : Constant
Bit rate : 64.0 Kbps
Channel(s) : 2 channels
Channel(s)_Original : 1 channel
Channel positions : Front: C
Sampling rate : 44.1 KHz
Compression mode : Lossy
Stream size : 1.77 MiB (3%)
Language : English
Encoded date : UTC 2013-05-04 00:07:43
Tagged date : UTC 2013-05-04 00:07:43

Download Kelbyone – Indoor Lifestyle Photography [repost]

Download Kelbyone – Indoor Lifestyle Photography [repost]

Download Kelbyone – Indoor Lifestyle Photography [repost]

Download Kelbyone – Indoor Lifestyle Photography [repost]

Download Kelbyone – Indoor Lifestyle Photography [repost]

Watch more